Skip to main content

Allen Stone Live at Prowse Farm on 2012-09-22






Collection AllenStone
Band/Artist Allen Stone
Venue Prowse Farm
Location Canton, MA

Source Schoeps MK41>KC5>CMC6>Sonosax SX-R4(24bit/96khz)
Lineage WAV>USB>Macbook Pro>Wave Editor(tracking,fades,resample(izotope)/dither(mbit+)to 16 bit/44.1k)>XAct(FLAC 8,ffp,fix sbe)
Taped by Andy Murray
Transferred by Andy Murray

Notes

Allen Stone
2012-09-22
Life Is Good Festival (Main Stage)
Prowse Farm
Canton, MA

Recorded and transferred by Andy Murray

Mics were 150' from stage 10' right of center DIN

Schoeps MK41>KC5>CMC6>Sonosax SX-R4(24bit/96khz)

WAV>USB>Macbook Pro>Wave Editor(tracking,fades,resample(izotope)/dither(mbit+)to 16 bit/44.1k)>XAct(FLAC 8,ffp,fix sbe)

1 Set

length expanded size cdr WAVE problems fmt ratio filename
2:57.45 31328684 B --- -- ----- wav 1.0000 allenstone2012-09-22_mk41_1644_d1t01.wav
3:40.08 38826860 B --- -- ----- wav 1.0000 allenstone2012-09-22_mk41_1644_d1t02.wav
3:50.20 40619084 B --- -- ----- wav 1.0000 allenstone2012-09-22_mk41_1644_d1t03.wav
5:27.19 57727532 B --- -- ----- wav 1.0000 allenstone2012-09-22_mk41_1644_d1t04.wav
3:37.27 38342348 B --- -- ----- wav 1.0000 allenstone2012-09-22_mk41_1644_d1t05.wav
3:42.13 39191420 B --- -- ----- wav 1.0000 allenstone2012-09-22_mk41_1644_d1t06.wav
4:06.67 43552028 B --- -- ----- wav 1.0000 allenstone2012-09-22_mk41_1644_d1t07.wav
5:23.04 56986652 B --- -- ----- wav 1.0000 allenstone2012-09-22_mk41_1644_d1t08.wav
4:34.26 48394796 B --- -- ----- wav 1.0000 allenstone2012-09-22_mk41_1644_d1t09.wav
4:15.25 45040844 B --- -- ----- wav 1.0000 allenstone2012-09-22_mk41_1644_d1t10.wav
6:23.46 67669436 B --- -- ----- wav 1.0000 allenstone2012-09-22_mk41_1644_d1t11.wav
5:06.23 54032540 B --- -- ----- wav 1.0000 allenstone2012-09-22_mk41_1644_d1t12.wav
53:04.23 561712224 B 1.0000 (12 files)

Reviews

Reviewer: JackDog - - December 31, 2012
Subject: Allen Stone is amazing!
Allen Stone puts on an amazing show. Here's what I could put together for the setlist:

01. festival announcements
02. intro > What I've Seen
03. Mama
04. Is This Love
05. Contact High
06. Sleep
07. Six Years
08. Nothing To Prove
09. Say So
10. Celebrate Tonight
11. Unaware
12. Satisfaction
PEOPLE ALSO FOUND
Allen Stone
by Allen Stone
758
0
1
( 1 reviews )
Source: Schoeps MK41>KC5>CMC6>Sonosax SX-R4(24bit/96khz)
Allen Stone
by Allen Stone
647
1
1
( 1 reviews )
Source: Schoeps MK41>KC5>CMC6>Sonosax SX-R4(24bit/96khz)
Source: Schoeps MK41>KC5>CMC6>Sonosax SX-M2>Apogee Mini-me(aes out,24bit/96khz)>COAX>Edirol R-44 & Soundboard>R-44
( 1 reviews )
Source: Schoeps Mk41>KC5>CMC6>Sonosax SX-R4(24bit/96khz) & Soundboard
Source: Schoeps MK41>KC5>CMC6>Sonosax SX-M2>Apogee Mini-me(aes out,24bit/96khz)>COAX>Edirol R-44 & Soundboard>R-44
Source: Schoeps MK41>KC5>CMC6>Sonosax SX-M2>Apogee Mini-me(aes out,24bit/96khz)>COAX>Edirol R-44 & Soundboard>R-44
Source: Schoeps MK41>KC5>CMC6>Sonosax SX-M2>Apogee Mini-me(aes out,24bit/96khz)>COAX>Edirol R-44
Source: Schoeps MK4>KC5>CMC6>Sonosax SX-M2>Apogee Mini-me(aes out,24bit/96khz)>COAX>Edirol R-44
Otis Grove
by Otis Grove
63
0
0
Source: Schoeps MK4>KC5>CMC6>Sonosax SX-M2>Apogee Mini-me(aes out,24bit/96khz)>COAX>Edirol R-44
Max Creek
by Max Creek
162
0
0
Source: DPA 4023>Edirol R-44(@24 Bit 96khz aes out)